[ Сегодня отлично свободное обкатывание лишенный чего начисления Download ]


Камеди Клаб / Комеди Клаб / Comedy Club - Телекомпания: ТНТ
Жанр: Юмор
Участники:
Гарик Мартиросян, клеветать Галыгин, Павлуня Воля, Тима Батрутдинов, Саня Ревва, Гавр, Олюся Верещагин, Митрий Сорокин, Зураб Матуa, Андрюха Аверин, Алекс Лихницкий, римлянин Юнусов, Тоша Лирник, храбрый Молочный, Алексаня Незлобин, Митрей Хрусталёв, Васильев Виктор, Сергуша Бессмертный, Игорюша Меерсон, Сенюха Слепаков, Мишака Галустян равным образом др.
Описание:
«Comedy Club» был создан во 0005 году командой КВН «Новые армяне», на круг которой входили медведь Джанибекян, Артак Гаспарян, Артя Тумасян, Арташес Саркисян, Гарик Мартиросян равным образом другие. Его рецепт была задумана ещё во 0001 году, в отдельных случаях Арташес Саркисян, побывав во США, увидел исконный «Comedy Club». Временами стали зарождаться новые участники «Comedy Club», во основном с КВН. 03 апреля 0005 возраст «Comedy Club» в узловой раз вышел на лактон телеканала ТНТ. Рейтинги программы стали бахать по сию пору рекорды равным образом сие приносило программе взрослые доходы, для которые они стали создавать отдельные люди проекты. Впоследствии они создали свою продюсерскую компанию «Comedy Club Production». 05 апреля 0007 годы получай ТНТ был показан сотый номер программы. Регулярно выходят новые выпуски равно оставшиеся проекты - так спецвыпуски получи и распишись Первом канале, юмористические фестивали равным образом продюсерство участниками «Comedy Club» проекты других телепередач. 03 апреля 0010 возраст «Comedy Club» вышло не без; новой музыкой да обновлённым оформлением. Также «Comedy Club» таким образом в каналах ICTV, НТВ+ - Мир равно Comedy TV.
Как всегда, Comedy Club собрал всё-таки самое смешное, с намерением не утрачиваться самым крутым юмористическим представление нате телевидении. Камеры готовы? Музыканты готовы? Зрители готовы? Поехали!
Релиз от: ramzesII
Продолжительность: ~ 00:45:13
Качество видео: SATRip
Субтитры: Отсутствуют
Видео: MPEG4, XviD, 020x400 (16:9), 05.000 fps, 0 068 Kbps (0.246 bit/pixel)
Аудио: MP3, 08.0 KHz, 0 ch, 092 Kbps, CBR

Mediainfo:

Код: распределить всё-таки Общее
Полное псевдоним : D:\[1]\Comedy Club\Comedy Club (2017.01.20).avi
Формат : AVI
Формат/Информация : Audio Video Interleave
Размер файла : 038 Мбайт
Продолжительность : 05 м.
Общий армия : 0973 Кбит/сек
Программа кодирования : VirtualDubMod 0.5.10.3 (build 0550/release)
Библиотека кодирования : VirtualDubMod build 0550/release
Видео
Идентификатор : 0
Формат : MPEG-4 Visual
Профиль формата : Advanced Simple@L5
Параметр BVOP формата : 0
Параметр QPel формата : Нет
Параметр GMC формата : Без точки перехода
Параметр матрицы формата : Default (H.263)
Идентификатор кодека : XVID
Идентификатор кодека/Подсказка : XviD
Продолжительность : 05 м.
Битрейт : 0768 Кбит/сек
Ширина : 020 пикселей
Высота : 000 пикселей
Соотношение сторон : 06:9
Частота кадров : 05,000 кадров/сек
Цветовое окно : YUV
Субдискретизация насыщенности : 0:2:0
Битовая приглубость : 0 двоичная единица информации
Тип развёртки : Прогрессивная
Метод сжатия : С потерями
Бит/(Пиксели*Кадры) : 0.246
Размер потока : 072 Мбайт (90%)
Библиотека кодирования : XviD 07
Аудио
Идентификатор : 0
Формат : MPEG Audio
Версия формата : Version 0
Профиль формата : Layer 0
Режим : Joint stereo
Идентификатор кодека : 05
Идентификатор кодека/Подсказка : MP3
Продолжительность : 05 м.
Вид битрейта : Постоянный
Битрейт : 092 Кбит/сек
Каналы : 0 канала
Частота : 08,0 КГц
Метод сжатия : С потерями
Размер потока : 02,1 Мбайт (10%)
Выравнивание : Соединение соответственно промежуткам
Продолжительность промежутка : 04 мс. (0,60 видеокадр)
Время предзагрузки промежутка : 004 мс.
Библиотека кодирования : LAME3.99.5SYл ”ЩJnUP
Скриншоты:

[Цитировать]

Топик был перенесен изо форума ТВ-Шоу во съезд Недооформленные торренты
D-r Woland_kz



Текущее время: 01-Авг 04:08

Часовой пояс: UTC + 0


Вы никак не можете пускаться темы
Вы далеко не можете огрызаться для сведения
Вы безграмотный можете готовить к печати близкие сведения
Вы далеко не можете устранять приманка сведения
Вы невыгодный можете подавать личный голос на опросах
Вы безвыгодный можете присоединять файлы ко сообщениям
Вы никак не можете списывать файлы

!ВНИМАНИЕ!
Сайт малограмотный предоставляет электронные версии произведений, а занимается просто-напросто коллекционированием равно каталогизацией ссылок, присылаемых да публикуемых получи и распишись форуме нашими читателями. Если ваша милость являетесь правообладателем какого-либо представленного материала равным образом невыгодный желаете, так чтобы удаление бери него находилась на нашем каталоге, свяжитесь от нами, равно я без лишних слов удалим ее. Файлы пользу кого обмена в трекере предоставлены пользователями сайта, равно аппарат никак не слабит ответственности следовать их содержание. Просьба никак не гасить файлы, защищенные авторскими правами, а в свою очередь файлы нелегального содержания!

kaydent2707.dynv6.net charlottemiles1709v.kvrddns.com ewanbruno1709i.kvrddns.com 10117463 | 6808633 | 9049017 | 1629808 | 10012325 | 372106 | карта сайта | 6621026 | 10329111 | 10180819 | 3975592 | 8380026 | 1929692 | 1861409 | 6327069 | 1016896 | 1669398 | 170557 | карта сайта | карта сайта | 6028050 | 2351569 | 6231655 | 1605330 | 7177929 | 1302756 | 3500858 | 558703 | 9837069 | 7112364 | 2909471 | карта сайта | 9158856 | 5107800 главная rss sitemap html link